You are not logged in or registered. Please login or register to use the full functionality of this board...
ALLSAT tienda en linea
  • Latest News
  • Búsqueda
  • Lista de miembros
  • Calendario
  • Ayuda
  • Game Section


  • Enviar respuesta 
     
    Calificación:
    • 0 votos - 0 Media
    • 1
    • 2
    • 3
    • 4
    • 5
    Hombres, mujeres & niños (2014) [BR-SCREENER XviD][MiC DubbeD HQ Castellano][Drama]
    01-27-2015, 09:06 PM
    Mensaje: #1
    Hombres, mujeres & niños (2014) [BR-SCREENER XviD][MiC DubbeD HQ Castellano][Drama]
    [center][Imagen: 54a8a82b68649.png]

    [Imagen: 53caeed0c089e.png]

    Narra la historia de un grupo de adolescentes estudiantes de instituto y sus padres que intentan asimilar las muchas maneras en que Internet ha cambiado sus relaciones, sus comunicaciones, la imagen de sí mismos y sus vidas amorosas. La película pretende analizar conflictos sociales tales como la cultura de los videojuegos, la anorexia, la infidelidad, la búsqueda de la fama y la proliferación de materiales ilícitos en Internet. A medida que se va poniendo a prueba a cada personaje y cada relación, se muestra la diversidad de caminos que escoge la gente (algunos trágicos, otros llenos de esperanza), mientras va quedando claro que nadie es inmune a este enorme cambio social que nos llega a través de nuestros teléfonos, nuestras tablets y nuestros ordenadores.

    [Imagen: 53c6e22fc51a1.png]

    Título: Hombres, mujeres & niños
    Título original: Men, Women & Children
    País: USA
    Estreno en USA: 01/10/2014
    Estreno en España: 12/12/2014
    Productora: Indian Paintbrush, Right of Way Films
    Director: Jason Reitman
    Guión: Jason Reitman, Erin Cressida Wilson
    Reparto: Timothée Chalamet, Olivia Crocicchia, Kaitlyn Dever, Ansel Elgort, Katherine Hughes, Elena Kampouris, Travis Tope, Rosemarie Dewitt, Jennifer Garner, Judy Greer, Dean Norris, Adam Sandler, Emma Thompson, David Denman, Jason Douglas, Dennis Haysbert, Shane Lynch, Will Peltz, J.K. Simmons
    Calificación: No recomendada para menores de 16 años
    Género: Drama | Adolescencia. Familia. Historias cruzadas. Internet / Informática

    Calidad de Video: HDRip XviD 720x400
    Calidad de Audio: Castellano MiC DubbeD HQ 256kbps
    Subtitulos: Forzados Español Pegados para conversaciones SMS y Carteles.
    Tamaño: 1.90 GB

    Mediainfo

    Código:
    Format                                   : AVI
    Format/Info                              : Audio Video Interleave
    File size                                : 1.89 GiB
    Duration                                 : 1h 59mn
    Overall bit rate                         : 2 270 Kbps
    Writing application                      : VirtualDubMod 1.5.10.2 (build 2542/release)
    Writing library                          : VirtualDubMod build 2542/release

    Video
    ID                                       : 0
    Format                                   : MPEG-4 Visual
    Format profile                           : Advanced Simple@L5
    Format settings, BVOP                    : 2
    Format settings, QPel                    : No
    Format settings, GMC                     : No warppoints
    Format settings, Matrix                  : Default (H.263)
    Muxing mode                              : Packed bitstream
    Codec ID                                 : XVID
    Codec ID/Hint                            : XviD
    Duration                                 : 1h 59mn
    Bit rate                                 : 2 005 Kbps
    Width                                    : 720 pixels
    Height                                   : 400 pixels
    Display aspect ratio                     : 16:9
    Frame rate                               : 23.976 fps
    Color space                              : YUV
    Chroma subsampling                       : 4:2:0
    Bit depth                                : 8 bits
    Scan type                                : Progressive
    Compression mode                         : Lossy
    Bits/(Pixel*Frame)                       : 0.290
    Stream size                              : 1.67 GiB (88%)
    Writing library                          : XviD 65

    Audio
    ID                                       : 1
    Format                                   : MPEG Audio
    Format version                           : Version 1
    Format profile                           : Layer 3
    Codec ID                                 : 55
    Codec ID/Hint                            : MP3
    Duration                                 : 1h 59mn
    Bit rate mode                            : Constant
    Bit rate                                 : 256 Kbps
    Channel(s)                               : 2 channels
    Sampling rate                            : 44.1 KHz
    Compression mode                         : Lossy
    Stream size                              : 219 MiB (11%)
    Alignment                                : Split accross interleaves
    Interleave, duration                     : 42 ms (1.00 video frame)
    Interleave, preload duration             : 500 ms





    1 Link y links Intercambiables

    http://gpaste.us/38e28bd4
    [/center]
    Encuentra todos sus mensajes
    Add Thank You Cita este mensaje en tu respuesta
    01-30-2015, 03:03 PM (Este mensaje fue modificado por última vez en: 01-30-2015 03:03 PM por El loco.)
    Mensaje: #2
    RE: Hombres, mujeres & niños
    ah qué chihdo. Hacía mucho tiempo que no hacían posts de estos, jeje

    .

    "El buen pollo en cualquier garganta se atora"
    Encuentra todos sus mensajes
    Cita este mensaje en tu respuesta
    Enviar respuesta 


    Posibles temas similares...
    Tema: Autor Respuestas: Vistas: Último mensaje
      SEX TAPE 2014 iron69 0 620 10-11-2014 03:38 PM
    Último mensaje: iron69
      LUCY 2014 iron69 0 557 10-11-2014 03:00 PM
    Último mensaje: iron69
      Y Donde Esta El Fantasma 2 [DVDRip][Latino] 2014 iron69 0 649 10-11-2014 02:32 PM
    Último mensaje: iron69
      Ultimatum a la Tierra [DVDSCREENER][Castellano][Thriller Ciencia Ficción 2008] rsmc 3 739 04-13-2009 03:26 PM
    Último mensaje: les+A+
      Ultimatum A La Tierra [TS-SCREENER][Español] CarlosEC 7 1,019 04-05-2009 06:13 AM
    Último mensaje: les+A+
      Si Señor (audio latino) (TS.XVID) ftatijuana 2 949 02-03-2009 05:36 AM
    Último mensaje: les+A+
      The Curious Case of Benjamin Button [DVDSCR.XviD] rsmc 2 788 02-03-2009 02:40 AM
    Último mensaje: les+A+
      Outlander [DVDScreener castellano] [Acción 2008] rsmc 1 523 01-30-2009 05:57 PM
    Último mensaje: rsmc
      Seven Pounds(2008)[dvdscr](drama)[Ingles+subtitulos] rsmc 1 559 01-12-2009 08:25 PM
    Último mensaje: rsmc
      Gran Torino [2008][Drama][DVDSCR][V.O.][+Subs] rsmc 1 485 12-17-2008 09:26 PM
    Último mensaje: rsmc

    Salto de foro:


    Contáctanos | Inicio Fta-Hispano | Volver arriba | Volver al contenido | Archivo (Modo simple) | Sindicación RSS